Posted By indiangirl At 07:10 PM - 05-25-2012. Download Kahaani (2012) - Bluray Rip - 400 MB - X264 - AAC - ESubs [400 MB] Rapidshare, Torrent, Mediafire, rapidgator, Extabit. All download links in end post.
 
Rapidshare 

Kahaani (2012) - Bluray Rip - 400 MB - X264 - AAC - ESubs [400 MB] Fast Full Download

Kahaani (2012) - Bluray Rip - 400 MB - X264 - AAC - ESubs [400 MB] Free download on Extabit, Rapidshare, Mediafire, Shareflare, ryushare and Torrent Kahaani (2012) - Bluray Rip - 400 MB - X264 - AAC - ESubs [400 MB] Torrent


Code:

General
Complete name : Kahani.400MB.BD.Rip.X264.By.Team.SD.mp4
Format : MPEG-4
Format profile : Base Media
Codec ID : isom
File size : 400 MiB
Duration : 2h 2mn
Overall bit rate : 456 Kbps


Video
ID : 1
Format : AVC
Format/Info : Advanced Video Codec
Format profile : [email protected]
Format settings, CABAC : Yes
Format settings, ReFrames : 2 frames
Codec ID : avc1
Codec ID/Info : Advanced Video Coding
Duration : 2h 2mn
Bit rate : 407 Kbps
Maximum bit rate : 2 827 Kbps
Width : 608 pixels
Height : 256 pixels
Display aspect ratio : 2.35:1
Original display aspect ratio : 2.35:1
Frame rate mode : Constant
Frame rate : 24.000 fps
Color space : YUV
Chroma subsampling : 4:2:0
Bit depth : 8 bits
Scan type : Progressive
Bits/(Pixel*Frame) : 0.109
Stream size : 355 MiB (89%)

Audio
ID : 2
Format : MPEG Audio
Format version : Version 1
Format profile : Layer 3
Mode : Joint stereo
Mode extension : MS Stereo
Codec ID : 6B
Duration : 2h 2mn
Bit rate mode : Constant
Bit rate : 48.0 Kbps
Maximum bit rate : 49.5 Kbps
Channel(s) : 2 channels
Sampling rate : 48.0 KHz
Compression mode : Lossy
Stream size : 42.0 MiB (11%)





Ripped By Team SD

Give Credits To Team SD Wherever you share this Rip

Uploader :: Team SD


Buy Premium For Downloading Files From Full Speed
=========


Code:

http://coraldrive.net/y1v67ogn9fry/Kahani.400MB.BD.Rip.X264.By.Team.SD.mp4

Download Kahaani (2012) - Bluray Rip - 400 MB - X264 - AAC - ESubs [400 MB] Here (Guaranteed Easiest-To-Download!)
Related Files: 1229, Download Speed:

Bookmarks

Posting Permissions

  • You may not post new threads
  • You may not post replies
  • You may not post attachments
  • You may not edit your posts
  •