Posted By indiangirl At 01:50 PM - 06-20-2012. Download Department (2012) - 1/3 - DVDRip - XviD - AC3 - Subs - BWTV Rapidshare, Torrent, Mediafire, rapidgator, Extabit. All download links in end post.
 
Rapidshare 

Department (2012) - 1/3 - DVDRip - XviD - AC3 - Subs - BWTV Fast Full Download

Department (2012) - 1/3 - DVDRip - XviD - AC3 - Subs - BWTV Free download on Extabit, Rapidshare, Mediafire, Shareflare, ryushare and Torrent Department (2012) - 1/3 - DVDRip - XviD - AC3 - Subs - BWTV Torrent



Code:

General
Complete name : Department (2012) DVD Rip Xvid AC3 Subs BWTV.avi
Format : AVI
Format/Info : Audio Video Interleave
File size : 1.46 GiB
Duration : 2h 24mn
Overall bit rate : 1 448 Kbps
Writing library : Boilsoft AVI tool build 1/release

Video
ID : 0
Format : MPEG-4 Visual
Format profile : Advanced Simple@L5
Format settings, BVOP : 2
Format settings, QPel : Yes
Format settings, GMC : No warppoints
Format settings, Matrix : Default (H.263)
Codec ID : XVID
Codec ID/Hint : XviD
Duration : 2h 24mn
Bit rate : 991 Kbps
Width : 640 pixels
Height : 272 pixels
Display aspect ratio : 2.35:1
Frame rate : 23.976 fps
Color space : YUV
Chroma subsampling : 4:2:0
Bit depth : 8 bits
Scan type : Progressive
Compression mode : Lossy
Bits/(Pixel*Frame) : 0.237
Stream size : 1 023 MiB (68%)
Writing library : XviD 1.2.1 (UTC 2008-12-04)

Audio
ID : 1
Format : AC-3
Format/Info : Audio Coding 3
Mode extension : CM (complete main)
Codec ID : 2000
Duration : 2h 24mn
Bit rate mode : Constant
Bit rate : 448 Kbps
Channel(s) : 6 channels
Channel positions : Front: L C R, Side: L R, LFE
Sampling rate : 48.0 KHz
Bit depth : 16 bits
Compression mode : Lossy
Stream size : 462 MiB (31%)
Alignment : Split accross interleaves
Interleave, duration : 42 ms (1.00 video frame)
Interleave, preload duration : 500 ms








Code:

http://extabit.com/file/2dvm1citv2ste/Department (2012) DVD Rip Xvid AC3 Subs BWTV.avi
http://extabit.com/file/2dvm1cipk9g36/Department (2012) DVD Rip Xvid AC3 Subs BWTV.srt

Code:

http://www.netload.in/datei2TDeVmCC8H/Department (2012) DVD Rip Xvid AC3 Subs BWTV.avi.htm
http://www.netload.in/dateiOPXAQBs2Bz/Department (2012) DVD Rip Xvid AC3 Subs BWTV.srt.htm

Download Department (2012) - 1/3 - DVDRip - XviD - AC3 - Subs - BWTV Here (Guaranteed Easiest-To-Download!)
Related Files: 1229, Download Speed: ';