Posted By Mr.Alias At 09:20 PM - 03-04-2012. Download The Muppets 2011 BRRip XviD AC3-SANTi Rapidshare, Torrent, Mediafire, rapidgator, Extabit. All download links in end post.
 
Rapidshare 

The Muppets 2011 BRRip XviD AC3-SANTi Fast Full Download

The Muppets 2011 BRRip XviD AC3-SANTi Free download on Extabit, Rapidshare, Mediafire, Shareflare, ryushare and Torrent The Muppets 2011 BRRip XviD AC3-SANTi Torrent

|.
The Muppets 2011 BRRip XviD AC3-SANTi.|

Quote:

Plot: When 3 muppet fans learn that Tex Richman wants to drill under the muppet theater for oil Gary, Mary and Walter set out to find the muppets who have been split up for years so that they can put on one last show and save the muppet theater. Kermit now lives in his own mansion depressed in Hollywood, Gonzo is a high class plumber at Gonzo's Royal Flush, Fozzie performs with a tribute band called The Moopets , Miss Piggy is the plus-size fashion editor at Vogue Paris, and Animal is at a celebrity anger management rehab center in Santa Barbara.
Code:

http://www.imdb.com/title/tt1204342/





Code:

General
Complete name : D:\Neeraj07\DwnlData\Neeraj07\The Muppets 2011 BRRip XviD AC3-SANTi.avi
Format : AVI
Format/Info : Audio Video Interleave
File size : 1.44 GiB
Duration : 1h 42mn
Overall bit rate : 2 003 Kbps
Writing application : VirtualDubMod 1.5.10.3 | www.virtualdub-fr.org || (build 2550/release)
Writing library : VirtualDubMod build 2550/release

Video
ID : 0
Format : MPEG-4 Visual
Format profile : Advanced Simple@L5
Format settings, BVOP : 3
Format settings, QPel : No
Format settings, GMC : No warppoints
Format settings, Matrix : Default (MPEG)
Codec ID : XVID
Codec ID/Hint : XviD
Duration : 1h 42mn
Bit rate : 1 545 Kbps
Width : 712 pixels
Height : 400 pixels
Display aspect ratio : 16:9
Frame rate : 23.976 fps
Color space : YUV
Chroma subsampling : 4:2:0
Bit depth : 8 bits
Scan type : Progressive
Compression mode : Lossy
Bits/(Pixel*Frame) : 0.226
Stream size : 1.11 GiB (77%)
Writing library : XviD 64

Audio
ID : 1
Format : AC-3
Format/Info : Audio Coding 3
Mode extension : CM (complete main)
Codec ID : 2000
Duration : 1h 42mn
Bit rate mode : Constant
Bit rate : 448 Kbps
Channel(s) : 6 channels
Channel positions : Front: L C R, Side: L R, LFE
Sampling rate : 48.0 KHz
Bit depth : 16 bits
Compression mode : Lossy
Stream size : 329 MiB (22%)
Alignment : Split accross interleaves
Interleave, duration : 42 ms (1.00 video frame)
Interleave, preload duration : 500 ms

Download Link
Code:

http://bitshare.com/files/v0mwrg71/The-Muppets-2011-BRRip-XviD-AC3-SANTi.part1.rar.html
http://bitshare.com/files/jor3ldge/T...part2.rar.html
http://bitshare.com/files/yx0yf5nr/T...part3.rar.html

Download The Muppets 2011 BRRip XviD AC3-SANTi Here (Guaranteed Easiest-To-Download!)
Related Files: 1229, Download Speed: ';