Posted By sujan69 At 10:54 PM - 05-12-2012. Download Chernobyl Diaries (2012) BDRip.720p.x264.AAC Rapidshare, Torrent, Mediafire, rapidgator, Extabit. All download links in end post.
 
Rapidshare 

Chernobyl Diaries (2012) BDRip.720p.x264.AAC Fast Full Download

Chernobyl Diaries (2012) BDRip.720p.x264.AAC Free download on Extabit, Rapidshare, Mediafire, Shareflare, ryushare and Torrent Chernobyl Diaries (2012) BDRip.720p.x264.AAC Torrent

Chernobyl Diaries (2012) BDRip.720p.x264.AAC




General
Complete name : Chernobyl.Diaries.2012.BDRip.720p.x264.AAC.avi
Format : AVI
Format/Info : Audio Video Interleave
File size : 1.85 GiB
Duration : 1h 30mn
Overall bit rate : 1 937 Kbps
Writing library : VirtualDub build 31536/release

Video
ID : 0
Format : MPEG-4 Visual
Format profile : Advanced Simple@L5
Format settings, BVOP : 2
Format settings, QPel : No
Format settings, GMC : No warppoints
Format settings, Matrix : Default (H.263)
Muxing mode : Packed bitstream
Codec ID : XVID
Codec ID/Hint : XviD
Duration : 1h 30mn
Bit rate : 1 800 Kbps
Width : 1280 pixels
Height : 692 pixels
Display aspect ratio : 2.25:1
Frame rate : 23.976 fps
Color space : YUV
Chroma subsampling : 4:2:0
Bit depth : 8 bits
Scan type : Progressive
Compression mode : Lossy
Bits/(Pixel*Frame) : 0.326
Stream size : 1.72 GiB (93%)
Writing library : XviD 64

Audio
ID : 1
Format : MPEG Audio
Format version : Version 1
Format profile : Layer 3
Mode : Joint stereo
Codec ID : 55
Codec ID/Hint : MP3
Duration : 2h 16mn
Bit rate mode : Constant
Bit rate : 128 Kbps
Channel(s) : 2 channels
Sampling rate : 44.1 KHz
Compression mode : Lossy
Stream size : 125 MiB (7%)
Alignment : Split accross interleaves
Interleave, duration : 42 ms (1.00 video frame)
Interleave, preload duration : 500 ms

Storyline

Six tourists hire an extreme tour guide who takes them to the abandoned city Pripyat, the former home to the workers of the Chernobyl nuclear reactor. During their exploration, they soon discover they are not alone.







Code:
http://extabit.com/file/2daw4tmtol6a0/Chernobyl.Diaries.2012.BDRip.720p.x264.AAC.avi

http://bitshare.com/files/cp5aqfgr/Chernobyl.Diaries.2012.BDRip.720p.x264.AAC.avi.html
Download Chernobyl Diaries (2012) BDRip.720p.x264.AAC Here (Guaranteed Easiest-To-Download!)
Related Files: 1229, Download Speed:

Bookmarks

Posting Permissions

  • You may not post new threads
  • You may not post replies
  • You may not post attachments
  • You may not edit your posts
  •