Posted By sam384 At 05:07 PM - 07-14-2012. Download The Grudge (2004) 720p Dual Audio Rapidshare, Torrent, Mediafire, rapidgator, Extabit. All download links in end post.
 
Rapidshare 

The Grudge (2004) 720p Dual Audio Fast Full Download

The Grudge (2004) 720p Dual Audio Free download on Extabit, Rapidshare, Mediafire, Shareflare, ryushare and Torrent The Grudge (2004) 720p Dual Audio Torrent

The Grudge 720p dual audio. visit my posts for all hollywood dual audio movies

Best dual Audio Print available on net.






Description--

Code:
General
Unique ID                        : 171151406070229317911620948198575377064 (0x80C28FD1F564442D940609BE0DFD0AA8)
Complete name                    : The Grudge (2004) BRRip 720P (English+Hindi) nsh168810\The Grudge (2004) BRRip 720P (English+Hindi) nsh168810.mkv
Format                           : Matroska
File size                        : 1.54 GiB
Duration                         : 1h 31mn
Overall bit rate                 : 2 407 Kbps
Encoded date                     : UTC 2011-08-16 13:47:33
Writing application              : mkvmerge v4.8.0 ('I Got The...') built on May 24 2011 03:12:58
Writing library                  : libebml v1.2.0 + libmatroska v1.1.0

Video
ID                               : 1
Format                           : AVC
Format/Info                      : Advanced Video Codec
Format profile                   : [email protected]
Format settings, CABAC           : Yes
Format settings, ReFrames        : 8 frames
Muxing mode                      : Header stripping
Codec ID                         : V_MPEG4/ISO/AVC
Duration                         : 1h 31mn
Bit rate                         : 1 841 Kbps
Width                            : 1 280 pixels
Height                           : 688 pixels
Display aspect ratio             : 1.860
Frame rate                       : 23.976 fps
Color space                      : YUV
Chroma subsampling               : 4:2:0
Bit depth                        : 8 bits
Scan type                        : Progressive
Bits/(Pixel*Frame)               : 0.087
Stream size                      : 1.14 GiB (74%)
Writing library                  : x264 core 115 r1995 c1e60b9
Encoding settings                : cabac=1 / ref=8 / deblock=1:-4:-2 / analyse=0x3:0x133 / me=umh / subme=9 / psy=1 / psy_rd=1.00:0.25 / mixed_ref=0 / me_range=32 / chroma_me=1 / trellis=2 / 8x8dct=1 / cqm=0 / deadzone=6,6 / fast_pskip=0 / chroma_qp_offset=-8 / threads=12 / sliced_threads=0 / slices=4 / nr=0 / decimate=0 / interlaced=0 / bluray_compat=0 / constrained_intra=0 / bframes=3 / b_pyramid=2 / b_adapt=2 / b_bias=0 / direct=1 / weightb=1 / open_gop=0 / weightp=2 / keyint=250 / keyint_min=23 / scenecut=40 / intra_refresh=0 / rc_lookahead=40 / rc=2pass / mbtree=1 / bitrate=1841 / ratetol=1.0 / qcomp=0.60 / qpmin=10 / qpmax=51 / qpstep=4 / cplxblur=20.0 / qblur=0.5 / vbv_maxrate=50000 / vbv_bufsize=50000 / nal_hrd=none / ip_ratio=1.10 / aq=1:1.00
Language                         : English

Audio #1
ID                               : 2
Format                           : AC-3
Format/Info                      : Audio Coding 3
Mode extension                   : CM (complete main)
Muxing mode                      : Header stripping
Codec ID                         : A_AC3
Duration                         : 1h 31mn
Bit rate mode                    : Constant
Bit rate                         : 320 Kbps
Channel(s)                       : 6 channels
Channel positions                : Front: L C R, Side: L R, LFE
Sampling rate                    : 48.0 KHz
Bit depth                        : 16 bits
Compression mode                 : Lossy
Stream size                      : 209 MiB (13%)
Title                            : 5.1
Language                         : English

Audio #2
ID                               : 3
Format                           : AC-3
Format/Info                      : Audio Coding 3
Mode extension                   : CM (complete main)
Muxing mode                      : Header stripping
Codec ID                         : A_AC3
Duration                         : 1h 31mn
Bit rate mode                    : Constant
Bit rate                         : 256 Kbps
Channel(s)                       : 2 channels
Channel positions                : Front: L R
Sampling rate                    : 48.0 KHz
Bit depth                        : 16 bits
Compression mode                 : Lossy
Delay relative to video          : 1s 500ms
Stream size                      : 167 MiB (11%)
Title                            : nsh168810
Language                         : Hindi

Resume Supported

Download links

Code:
http://hipfile.com/as8548f0opmw/The_Grudge_2004_BRRip.zip.html
Download The Grudge (2004) 720p Dual Audio Here (Guaranteed Easiest-To-Download!)
Related Files: 1229, Download Speed: ';