Posted By WROSER At 05:03 PM - 06-30-2012. Download Housefull 2 (2012) - 4.37GB - 720P - DVDRip - X264 - AC3 - Subs - BWTV Rapidshare, Torrent, Mediafire, rapidgator, Extabit. All download links in end post.
 
Rapidshare 

Housefull 2 (2012) - 4.37GB - 720P - DVDRip - X264 - AC3 - Subs - BWTV Fast Full Download

Housefull 2 (2012) - 4.37GB - 720P - DVDRip - X264 - AC3 - Subs - BWTV Free download on Extabit, Rapidshare, Mediafire, Shareflare, ryushare and Torrent Housefull 2 (2012) - 4.37GB - 720P - DVDRip - X264 - AC3 - Subs - BWTV Torrent









Code:
General
Complete name                            : Housefull 2 (2012) 720P DVD Rip X264 AC3 Subs BWTV.mkv
Format                                   : Matroska
Format version                           : Version 2
File size                                : 4.37 GiB
Duration                                 : 2h 39mn
Overall bit rate                         : 3 915 Kbps
Encoded date                             : UTC 2012-06-30 12:30:47
Writing application                      : mkvmerge v5.5.0 ('Healer') built on Apr  6 2012 21:43:24
Writing library                          : libebml v1.2.3 + libmatroska v1.3.0

Video
ID                                       : 1
Format                                   : AVC
Format/Info                              : Advanced Video Codec
Format profile                           : [email protected]
Format settings, CABAC                   : Yes
Format settings, ReFrames                : 4 frames
Muxing mode                              : Header stripping
Codec ID                                 : V_MPEG4/ISO/AVC
Duration                                 : 2h 39mn
Bit rate                                 : 3 466 Kbps
Width                                    : 1 280 pixels
Height                                   : 544 pixels
Display aspect ratio                     : 2.35:1
Frame rate                               : 23.976 fps
Color space                              : YUV
Chroma subsampling                       : 4:2:0
Bit depth                                : 8 bits
Scan type                                : Progressive
Bits/(Pixel*Frame)                       : 0.208
Stream size                              : 3.78 GiB (87%)
Writing library                          : x264 core 120 r2164 da19765
Encoding settings                        : cabac=1 / ref=3 / deblock=1:0:0 / analyse=0x3:0x113 / me=hex / subme=7 / psy=1 / psy_rd=1.00:0.00 / mixed_ref=1 / me_range=16 / chroma_me=1 / trellis=1 / 8x8dct=1 / cqm=0 / deadzone=21,11 / fast_pskip=1 / chroma_qp_offset=-2 / threads=12 / sliced_threads=0 / nr=0 / decimate=1 / interlaced=0 / bluray_compat=0 / constrained_intra=0 / bframes=3 / b_pyramid=2 / b_adapt=1 / b_bias=0 / direct=1 / weightb=1 / open_gop=0 / weightp=2 / keyint=250 / keyint_min=23 / scenecut=40 / intra_refresh=0 / rc_lookahead=40 / rc=2pass / mbtree=1 / bitrate=3466 / ratetol=1.0 / qcomp=0.60 / qpmin=0 / qpmax=69 / qpstep=4 / cplxblur=20.0 / qblur=0.5 / ip_ratio=1.40 / aq=1:1.00
Language                                 : English
Default                                  : Yes
Forced                                   : No

Audio
ID                                       : 2
Format                                   : AC-3
Format/Info                              : Audio Coding 3
Mode extension                           : CM (complete main)
Muxing mode                              : Header stripping
Codec ID                                 : A_AC3
Duration                                 : 2h 39mn
Bit rate mode                            : Constant
Bit rate                                 : 448 Kbps
Channel(s)                               : 6 channels
Channel positions                        : Front: L C R, Side: L R, LFE
Sampling rate                            : 48.0 KHz
Bit depth                                : 16 bits
Compression mode                         : Lossy
Stream size                              : 512 MiB (11%)
Default                                  : Yes
Forced                                   : No








SINGLE DIRECT FAST LINK


Code:
http://extabit.com/file/2dvlv9063x4fb/Housefull 2 (2012) 720P DVD Rip X264 AC3 Subs BWTV.mkv

700MB LINKS



Code:
http://www.netload.in/dateiTDXwebrWY4/Housefull 2 (2012) 720P DVD Rip X264 AC3 Subs BWTV.mkv.001.htm
http://www.netload.in/dateiYejT4rioAh/Housefull 2 (2012) 720P DVD Rip X264 AC3 Subs BWTV.mkv.002.htm
http://www.netload.in/dateiEFjVn4n08V/Housefull 2 (2012) 720P DVD Rip X264 AC3 Subs BWTV.mkv.003.htm
http://www.netload.in/dateitpbQgeiG4M/Housefull 2 (2012) 720P DVD Rip X264 AC3 Subs BWTV.mkv.004.htm
http://www.netload.in/dateijyMTUWwizJ/Housefull 2 (2012) 720P DVD Rip X264 AC3 Subs BWTV.mkv.005.htm
http://www.netload.in/dateivISE1NJUsP/Housefull 2 (2012) 720P DVD Rip X264 AC3 Subs BWTV.mkv.006.htm
http://www.netload.in/dateiBifiCw5w2D/Housefull 2 (2012) 720P DVD Rip X264 AC3 Subs BWTV.mkv.007.htm
http://www.netload.in/dateiVnfUmTgJE6/Housefull 2 (2012) 720P DVD Rip X264 AC3 Subs BWTV.sub.htm

Code:
http://extabit.com/file/2dvlv9063xanr/Housefull 2 (2012) 720P DVD Rip X264 AC3 Subs BWTV.mkv.001
http://extabit.com/file/2dvlv9063xdt3/Housefull 2 (2012) 720P DVD Rip X264 AC3 Subs BWTV.mkv.002
http://extabit.com/file/2dvlv9063xap3/Housefull 2 (2012) 720P DVD Rip X264 AC3 Subs BWTV.mkv.003
http://extabit.com/file/2dvlv9063xk9j/Housefull 2 (2012) 720P DVD Rip X264 AC3 Subs BWTV.mkv.004
http://extabit.com/file/2dvlv9063xk3r/Housefull 2 (2012) 720P DVD Rip X264 AC3 Subs BWTV.mkv.005
http://extabit.com/file/2dvlv9063xk5z/Housefull 2 (2012) 720P DVD Rip X264 AC3 Subs BWTV.mkv.006
http://extabit.com/file/2dvlv9063xqhj/Housefull 2 (2012) 720P DVD Rip X264 AC3 Subs BWTV.mkv.007
http://extabit.com/file/2dvlv9063xnfr/Housefull 2 (2012) 720P DVD Rip X264 AC3 Subs BWTV.sub
Download Housefull 2 (2012) - 4.37GB - 720P - DVDRip - X264 - AC3 - Subs - BWTV Here (Guaranteed Easiest-To-Download!)
Related Files: 1229, Download Speed: ';