Posted By WROSER At 10:26 AM - 06-30-2012. Download Housefull 2 (2012) - 700MB - 1CDRip - DVD - XviD - MP3 - Subs - BWTV Rapidshare, Torrent, Mediafire, rapidgator, Extabit. All download links in end post.
 
Rapidshare 

Housefull 2 (2012) - 700MB - 1CDRip - DVD - XviD - MP3 - Subs - BWTV Fast Full Download

Housefull 2 (2012) - 700MB - 1CDRip - DVD - XviD - MP3 - Subs - BWTV Free download on Extabit, Rapidshare, Mediafire, Shareflare, ryushare and Torrent Housefull 2 (2012) - 700MB - 1CDRip - DVD - XviD - MP3 - Subs - BWTV Torrent









Code:
General
Complete name                            : Housefull 2 (2012) 1CD DVD Rip Xvid MP3 Subs BWTV.avi
Format                                   : AVI
Format/Info                              : Audio Video Interleave
File size                                : 713 MiB
Duration                                 : 2h 39mn
Overall bit rate                         : 623 Kbps
Writing library                          : VirtualDub build 32661/release

Video
ID                                       : 0
Format                                   : MPEG-4 Visual
Format profile                           : Advanced Simple@L5
Format settings, BVOP                    : 2
Format settings, QPel                    : Yes
Format settings, GMC                     : No warppoints
Format settings, Matrix                  : Default (H.263)
Codec ID                                 : XVID
Codec ID/Hint                            : XviD
Duration                                 : 2h 39mn
Bit rate                                 : 518 Kbps
Width                                    : 608 pixels
Height                                   : 256 pixels
Display aspect ratio                     : 2.40:1
Frame rate                               : 23.976 fps
Color space                              : YUV
Chroma subsampling                       : 4:2:0
Bit depth                                : 8 bits
Scan type                                : Progressive
Compression mode                         : Lossy
Bits/(Pixel*Frame)                       : 0.139
Stream size                              : 592 MiB (83%)
Writing library                          : XviD 1.2.1 (UTC 2008-12-04)

Audio
ID                                       : 1
Format                                   : MPEG Audio
Format version                           : Version 1
Format profile                           : Layer 3
Mode                                     : Joint stereo
Codec ID                                 : 55
Codec ID/Hint                            : MP3
Duration                                 : 2h 39mn
Bit rate mode                            : Constant
Bit rate                                 : 96.0 Kbps
Channel(s)                               : 2 channels
Sampling rate                            : 32.0 KHz
Compression mode                         : Lossy
Stream size                              : 110 MiB (15%)
Alignment                                : Split accross interleaves
Interleave, duration                     : 42 ms (1.00 video frame)
Interleave, preload duration             : 500 ms
Writing library                          : LAME3.99r
Encoding settings                        : -m j -V 4 -q 2 -lowpass 15.1 -b 96











Code:
http://extabit.com/file/2dvlv843lm14h/Housefull 2 (2012) 1CD DVD Rip Xvid MP3 Subs BWTV.avi
http://extabit.com/file/2dvlv843lly1t/Housefull 2 (2012) 1CD DVD Rip Xvid MP3 Subs BWTV.sub

Code:
http://ul.to/gyfoia4w/Housefull 2 (2012) 1CD DVD Rip Xvid MP3 Subs BWTV.avi
http://ul.to/j6zhc8vm/Housefull 2 (2012) 1CD DVD Rip Xvid MP3 Subs BWTV.sub
Download Housefull 2 (2012) - 700MB - 1CDRip - DVD - XviD - MP3 - Subs - BWTV Here (Guaranteed Easiest-To-Download!)
Related Files: 1229, Download Speed: ';